Filecrypt zeigt vereinzelt Files als "n/a". Die Downloads sind trotzdem komplett.

DNS SERVER AENDERNum der staatlichen Zensur zu umgehen. Sollten wir von eurem Provider geseprrt werden, nutzt den TOR BROWSER oder ändert euren DNS SERVER.

Filmwünsche können bei uns im Forum abgegeben werden

Wir Speichern Nicht




 
 
 
Top Releases
Christopher.Robin.2018.MULTI...
Burnt.Im.Rausch.der.Sterne.2...
Sicario.2.Soldado.2018.Germa...
Hotel.Artemis.German.DL.720p...
Hotel.Artemis.German.DL.1080...
Dead.in.a.Week.Oder.Geld.zur...
Dead.in.a.Week.Oder.Geld.zur...
Die.Welt.gehoert.dir.2018.Ge...
Die.Welt.gehoert.dir.2018.Ge...
Paradox.Kill.Zone.Bangkok.20...

Cinedubs
I.Still.See.You.Sie.lassen.d...
I.Still.See.You.Sie.lassen.d...
Braven.2018.German.AC3D.DL.1...
Braven.2018.German.AC3D.DL.7...
Smallfoot.Ein.eisigartiges.A...
Smallfoot.Ein.eisigartiges.A...
Halloween.German.DL.AC3.Dubb...
Halloween.German.DL.AC3.Dubb...
Freaky.Friday.German.DL.AC3....
Freaky.Friday.German.DL.AC3....

Neuerscheinungen 2017-18
Koenig.der.Loewen.The.Lion.K...
BuyBust.2018.DUAL.COMPLETE.B...
The.Darkest.Minds.Die.Ueberl...
Battle.2018.German.720p.WEB....
Battle.2018.German.1080p.WEB...
Angelas.Weihnachten.2018.Ger...
Angelas.Weihnachten.2018.Ger...
The.Mermaid.Lake.of.the.Dead...
The.Mermaid.Lake.of.the.Dead...
Ouija.Seance.The.Final.Game....

XXX
CuckoldSessions.18.11.25.Kat...
DesperateAmateurs.18.11.25.K...
EvilAngel.Top.Heavy.Sluts.XX...
ATKHairy.18.11.23.Lexa.XXX.1...
FootsieBabes.18.11.25.Lilu.M...
GirlsOutWest.18.11.25.Amber....
CzechEscortGirls.18.11.26.Ti...
DorcelClub.18.11.26.Alyssia....
DDFBusty.18.11.25.Victoria.J...
ATKGirlfriends.18.11.25.Lucy...
ATKHairy.18.11.26.Nenetl.Avr...
Cucked.18.11.26.Skylar.Snow....
AdultAuditions.E264.Paige.My...
FakeDrivingSchool.18.11.26.G...
EuroTeenErotica.18.11.26.Mia...
Cosmid.18.11.26.Allie.Reed.F...
GirlsTryAnal.18.11.25.Penny....
CzechEscortGirls.18.11.26.Ka...
FirstAnalQuest.18.11.25.Eva....
FitnessRooms.18.11.26.Boni.J...

3D
The.Art.of.Flight.3D.2011.Ge...
The.End.Of.The.World.3D.2010...
The.First.Avenger.Civil.War....
Die.Unglaublichen.2.2018.3D....
Skyscraper.3D.2018.MULTi.COM...
Ant-Man.And.The.Wasp.3D.2018...
Ant.Man.and.the.Wasp.3D.2018...
Die.Unglaublichen.2.3D.2018....
Die.Unglaublichen.2.2018.3D....
Die.Unglaublichen.2.2018.3D....
Sharknado.6.The.Last.One.3D....
Deep.Kleine.Helden.der.Tiefs...
Deep.3D.2017.MULTI.COMPLETE....
Detective.Dee.und.die.Legend...
Detective.Dee.und.die.Legend...

Old_Stuff
Akte.X.S03.German.DTS.DL.108...
Dunkirk.1958.COMPLETE.BLURAY...
Das.Wunder.von.Manhattan.199...
The.Amazing.Spiderman.2.Rise...
Rise.of.the.Predator.2014.Ge...
Detective.Dee.und.das.Geheim...
Detective.Dee.Und.Der.Fluch....
Ghost.Rider.Spirit.of.Vengea...
Species.IV.Das.Erwachen.2007...
Species.IV.Das.Erwachen.2007...
Hotel.Transsilvanien.2012.Ge...
The.Dead.2010.German.DL.1080...
The.Dead.2.India.2013.German...
Britney.Spears.Live.The.Femm...
Buffy.The.Vampire.Slayer.199...

Filme
S.W.A.T.2017.S02.German.DD51...
S.W.A.T.2017.S02.German.DD51...
Das.Geheimniss.von.Marrowbon...
Blood.Diner.1987.Vestron.108...
Eine.Liebe.von.Swann.1984.Ge...
Muenchen.aka.Munich.2005.Ope...
Dominique.-.Die.singende.Non...
Carlitos.Way.1993.German.AC3...
Mars.S02.GERMAN.720p.HDTV.x2...
4.Blocks.S02.COMPLETE.German...
4.Blocks.S02.COMPLETE.German...
4.Blocks.S01.COMPLETE.GERMAN...
4.Blocks.S01.COMPLETE.GERMAN...
The.Walking.Dead.S8D1-5.UNCU...
Star.Wars.Rebels.S03D01-3.MU...
Mars.S02.GERMAN.DL.1080p.HDT...
Supernatural.S13.COMPLETE.DL...
Supernatural.S13.COMPLETE.DL...
Quantico.S03.GERMAN.DL.DUBBE...
Quantico.S03.GERMAN.DUBBED.7...
Marvels.Inhumans.S01.German....
Marvels.Inhumans.S01.German....
Der.Koenig.Der.Loewen.1994.G...
Der.Koenig.Der.Loewen.1994.G...

 
 
S.W.A.T.2017.S02.German.DD51.Dubbed.DL.1080p.AmazonHD.x264-TVS

Jahr: 2018
Genre: Action | Abenteuer | Krimi
Sprache: Deutsch AC3 | Englisch AC3
Laufzeit: 41min je Folge
Bitrate: 9700 Kbps
Format: MKV
Größe: 3,1 GB je Folge
Release:

Beschreibung:

 Der schwarze Polizist Daniel ‚Hondo‘ Harrelson (Shemar Moore) ist im Ghetto von Los Angeles aufgewachsen. Als sein Boss nach Schüssen auf einen unschuldigen Schwarzen seinen Posten verliert, wird Daniel neuer Leiter der Spezialeinheit „Special Weapons and Tactics Team“.

Das S.W.A.T. kämpft gegen Drogen, Terroristen und Gang-Gewalt und wird immer dann gerufen, wenn alle anderen Mittel erschöpft sind. Doch Hondos Herkunft und die Verbindungen zur Straßenszene stellen ihn vor große Herausforderungen, da er immer wieder in Konflikte gerät, an denen auch Menschen beteiligt sind, die er von Kindesbeinen an kennt.

 

enthaltene Folgen:

S.W.A.T.2017.S02E01.Erdbeben.German.DD51.Dubbed.DL.1080p.AmazonHD.x264-TVS NEU

 



General
Complete name                            : S.W.A.T.2017.S02E01.Erdbeben.German.DD51.Dubbed.DL.1080p.AmazonHD.x264-TVS\tvs-swat-dd51-ded-dl-18p-azhd-x264-201.mkv
Format                                   : Matroska
Format version                           : Version 4 / Version 2
File size                                : 3.13 GiB
Duration                                 : 41mn 19s
Overall bit rate                         : 10.8 Mbps
Encoded date                             : UTC 2018-12-03 21:26:05
Writing application                      : mkvmerge v26.0.0 ('In The Game') 64-bit
Writing library                          : libebml v1.3.6 + libmatroska v1.4.9
DURATION                                 : 00:40:45.352000000
NUMBER_OF_FRAMES                         : 938
NUMBER_OF_BYTES                          : 29375
_STATISTICS_WRITING_APP                  : mkvmerge v26.0.0 ('In The Game') 64-bit
_STATISTICS_WRITING_DATE_UTC             : 2018-12-03 21:26:05
_STATISTICS_TAGS                         : BPS DURATION NUMBER_OF_FRAMES NUMBER_OF_BYTES

Video
ID                                       : 1
Format                                   : AVC
Format/Info                              : Advanced Video Codec
Format profile                           : High@L4.0
Format settings, CABAC                   : Yes
Format settings, ReFrames                : 4 frames
Codec ID                                 : V_MPEG4/ISO/AVC
Duration                                 : 41mn 19s
Bit rate                                 : 9 730 Kbps
Width                                    : 1 920 pixels
Height                                   : 1 080 pixels
Display aspect ratio                     : 16:9
Frame rate mode                          : Constant
Frame rate                               : 25.000 fps
Color space                              : YUV
Chroma subsampling                       : 4:2:0
Bit depth                                : 8 bits
Scan type                                : Progressive
Bits/(Pixel*Frame)                       : 0.188
Stream size                              : 2.81 GiB (90%)
Default                                  : Yes
Forced                                   : No
Color primaries                          : BT.709
Transfer characteristics                 : BT.709
Matrix coefficients                      : BT.709

Audio #1
ID                                       : 2
Format                                   : AC-3
Format/Info                              : Audio Coding 3
Mode extension                           : CM (complete main)
Format settings, Endianness              : Big
Codec ID                                 : A_AC3
Duration                                 : 41mn 19s
Bit rate mode                            : Constant
Bit rate                                 : 448 Kbps
Channel(s)                               : 6 channels
Channel positions                        : Front: L C R, Side: L R, LFE
Sampling rate                            : 48.0 KHz
Bit depth                                : 16 bits
Compression mode                         : Lossy
Stream size                              : 132 MiB (4%)
Language                                 : German
Default                                  : Yes
Forced                                   : No

Audio #2
ID                                       : 3
Format                                   : AC-3
Format/Info                              : Audio Coding 3
Mode extension                           : CM (complete main)
Format settings, Endianness              : Big
Codec ID                                 : A_AC3
Duration                                 : 41mn 19s
Bit rate mode                            : Constant
Bit rate                                 : 448 Kbps
Channel(s)                               : 6 channels
Channel positions                        : Front: L C R, Side: L R, LFE
Sampling rate                            : 48.0 KHz
Bit depth                                : 16 bits
Compression mode                         : Lossy
Stream size                              : 132 MiB (4%)
Language                                 : English
Default                                  : No
Forced                                   : No

Text
ID                                       : 4
Format                                   : UTF-8
Codec ID                                 : S_TEXT/UTF8
Codec ID/Info                            : UTF-8 Plain Text
Language                                 : English
Default                                  : No
Forced                                   : No



Download:
Share-Online.biz Share-Online.bizShare-Online.bizShare-Online.biz | Rapidgator.net Rapidgator.netRapidgator.netRapidgator.net
 

Kommentare